.
» » Счастливой охоты

Счастливой охоты

Трейлер к фильму

Описание фильма "Счастливой охоты"

Скачать Счастливой охоты через торрент

Вниманию правообладателей! Просьба претензии к контенту отправлять на почтовый ящик [email protected]
Сиды Качество Перевод Размер Видео Аудио
Скачать Загрузка... BDRip1080 любительский одноголосный, закадровый [BadBajo] 3,68 Гб AVC, 1920х780 (2.462), 23.976 fps ~ 4525 Kbps AC3, 48 KHz, 6 ch ~ 384 Kb/s (русский)AC3, 48 KHz, 6 ch ~ 384 Kb/s (английский)
Скачать Загрузка... WEB-DL Любительский (одноголосый, закадровый) | 1,56 Гб AVC, 1024x416 (2.462), 23.976 fps, 1 904 Kbps (0.186 bit/pixel) AC-3, 48.0 KHz, 6 ch, 384 Kbps, CBR (Russian)
Скачать Загрузка... WEB-DL BadBajo 782,40 Мб MPEG-4 AVC, 768x312, ~ 1074 Кбит/с AAC-LC, 2 ch, ~72 Кбит/сMIОбщее Уникальный идентификатор : 183844288093474230796030357663457143341 (0x8A4F1F3866EF4E7E920E97913342EA2D) Полное имя : D:MOVIESHappy.Hunting.2017.ExKinoRay.mkv Формат : Matroska Версия формата : Version 4 / Version 2 Размер файла : 746 Мбайт Продолжительность : 1 ч. 30 м. Общий поток : 1148 Кбит/сек Дата кодирования : UTC 2017-09-23 15:26:57 Программа кодирования : mkvmerge v15.0.0 ('Duel with the Devil') 64-bit Библиотека кодирования : libebml v1.3.5 + libmatroska v1.4.5 Видео Идентификатор : 1 Формат : AVC Формат/Информация : Advanced Video Codec Профиль формата : [email protected] Параметр CABAC формата : Да Параметр RefFrames формата : 10 кадров Идентификатор кодека : V_MPEG4/ISO/AVC Продолжительность : 1 ч. 30 м. Битрейт : 1074 Кбит/сек Ширина : 768 пикселей Высота : 312 пикселей Соотношение сторон : 2,462 Режим частоты кадров : Постоянный Частота кадров : 23,976 (24000/1001) кадра/сек Цветовое пространство : YUV Субдискретизация насыщенности : 4:2:0 Битовая глубина : 8 бит Тип развёртки : Прогрессивная Бит/(Пиксели*Кадры) : 0.187 Размер потока : 698 Мбайт (94%) Библиотека кодирования : x264 core 152 r2851kMod ba24899 Настройки программы : cabac=1 / ref=10 / deblock=1:-3:-3 / analyse=0x3:0x113 / me=umh / subme=11 / psy=1 / fade_compensate=0.00 / psy_rd=1.00:0.10 / mixed_ref=1 / me_range=32 / chroma_me=1 / trellis=2 / 8x8dct=1 / cqm=0 / deadzone=21,11 / fast_pskip=0 / chroma_qp_offset=-3 / threads=6 / lookahead_threads=1 / sliced_threads=0 / nr=0 / decimate=0 / interlaced=0 / bluray_compat=0 / constrained_intra=0 / bframes=10 / b_pyramid=2 / b_adapt=2 / b_bias=0 / direct=3 / weightb=1 / open_gop=0 / weightp=2 / keyint=240 / keyint_min=23 / scenecut=40 / intra_refresh=0 / rc_lookahead=40 / rc=2pass / mbtree=1 / bitrate=1074 / ratetol=1.0 / qcomp=0.60 / qpmin=0 / qpmax=69 / qpstep=4 / cplxblur=20.0 / qblur=0.5 / vbv_maxrate=50000 / vbv_bufsize=62500 / nal_hrd=none / filler=0 / ip_ratio=1.40 / aq=3:1.00 Default : Да Forced : Нет Аудио Идентификатор : 2 Формат : AAC Формат/Информация : Advanced Audio Codec Профиль формата : LC Идентификатор кодека : A_AAC Продолжительность : 1 ч. 30 м. Битрейт : 72,0 Кбит/сек Каналы : 2 канала Расположение каналов : Front: L R Частота : 48,0 КГц Частота кадров : 46,875 кадров/сек (1024 SPF) Метод сжатия : С потерями Задержка видео : 9 мс. Размер потока : 46,8 Мбайт (6%) Default : Да Forced : Нет Скриншоты

У нас вы можете легко скачать Счастливой охоты через торрент бесплатно в хорошем качестве, оставляйте комментарии и делитесь впечатлениями!



Добавить комментарий

Ваше имя

Комментарий

Все рекомендуемые нами программы доступны на странице Скачать. На сайте Кино как То всегда все новые фильмы, доступные к скачиванию через торрент.

Рекомендуем скачать фильмы через торрент

Кино как то Контакты:
Адрес: Гаражный пр. 13 105275 Москва,